Bahubali 2 The Conclusion 2017 Hindi Movies HDSCam XviD Clean Aud...

  • Category Movies
  • Type Divx/Xvid
  • Language Hindi
  • Total size 705.3 MB
  • Uploaded By nehalpuja
  • Downloads 15329
  • Last checked 3 weeks ago
  • Date uploaded 3 weeks ago
  • Seeders 88
  • Leechers 25

Infohash : D15832C07C25546022719AFAA99AA9DFDD68A7A2

Bahubali 2 The Conclusion 2017 Hindi Movies HDSCam XviD Clean Audio New Source with Sample ☻rDX☻
================================================================================================

SCREEN SHOTS:



or

http://computerhosting.co.in/2017/4/honda/1.html

Format : Matroska
Format version : Version 4 / Version 2
File size : 697 MiB
Duration : 2 h 35 min
Overall bit rate mode : Constant
Overall bit rate : 628 kb/s
Movie name : Bahubali 2 The Conclusion 2017 Hindi Movies HDSCam XviD Clean Audio New Source ☻rDX☻

Video
ID : 2
Format : AVC
Format/Info : Advanced Video Codec
Format profile : [email protected]
Format settings, CABAC : Yes
Format settings, ReFrames : 2 frames
Format settings, GOP : M=1, N=12
Codec ID : V_MPEG4/ISO/AVC
Duration : 2 h 35 min
Bit rate mode : Constant
Bit rate : 501 kb/s
Width : 680 pixels
Height : 248 pixels
Display aspect ratio : 2.742
Frame rate mode : Constant
Frame rate : 24.000 FPS
Color space : YUV
Chroma subsampling : 4:2:0
Bit depth : 8 bits
Scan type : Progressive
Bits/(Pixel*Frame) : 0.124
Stream size : 541 MiB (78%)
Title : ☻rDX☻
Default : Yes
Forced : No

Audio
ID : 1
Format : MPEG Audio
Format version : Version 1
Format profile : Layer 3
Codec ID : A_MPEG/L3
Codec ID/Hint : MP3
Duration : 2 h 35 min
Bit rate mode : Constant
Bit rate : 128 kb/s
Channel(s) : 1 channel
Sampling rate : 48.0 kHz
Compression mode : Lossy
Stream size : 142 MiB (20%)
Title : ☻rDX☻
Writing library : LAME3.98
Default : Yes
Forced : No



IMDB : http://www.imdb.com/title/tt4849438

Files:

Bahubali 2 The Conclusion 2017 Hindi Movies HDSCam XviD Clean Audio New Source with Sample ☻rDX☻
  • Sample ~ Bahubali 2 The Conclusion 2017 Hindi Movies HDSCam XviD Clean Audio New Source ☻rDX☻.mkv (8.0 MB)
  • Bahubali 2 The Conclusion 2017 Hindi Movies HDSCam XviD Clean Audio New Source ☻rDX☻.mkv (697.3 MB)

Comments

Code:

  • udp://tracker.coppersurfer.tk:6969/announce
  • udp://tracker.openbittorrent.com:80/announce
  • udp://glotorrents.pw:6969/announce
  • udp://tracker.publicbt.com:80/announce
  • http://retracker.krs-ix.ru/announce
  • udp://tracker.pomf.se:80/announce
  • udp://explodie.org:6969/announce
  • http://mgtracker.org:2710/announce
  • http://tracker.aletorrenty.pl:2710/announce
  • http://tracker.btcake.com/announce
  • udp://tracker.openbittorrent.com:80/announce
  • udp://tracker.leechers-paradise.org:6969/announce
  • udp://coppersurfer.tk:6969/announce